<?xml version="1.0" standalone="no"?>
<!DOCTYPE svg PUBLIC "-//W3C//DTD SVG 1.1//EN" "http://www.w3.org/Graphics/SVG/1.1/DTD/svg11.dtd" >
<svg xmlns="http://www.w3.org/2000/svg">
<metadata>Generated by IcoMoon</metadata>
<defs>
<font id="Famille-Bebe" horiz-adv-x="1024">
<font-face units-per-em="1024" ascent="960" descent="-64" />
<missing-glyph horiz-adv-x="1024" />
<glyph unicode="&#x20;" horiz-adv-x="512" d="" />
<glyph unicode="&#xe900;" glyph-name="chevron-left-light" d="M805.221 868.434l-91.566 91.566-512.349-511.651 512.349-512.349 91.566 91.566-420.784 420.784 420.784 420.085z" />
<glyph unicode="&#xe901;" glyph-name="chevron-right-light" d="M218.979 27.852l91.503-91.503 512 512-512 512-91.503-91.503 420.497-420.497-420.497-420.497z" />
<glyph unicode="&#xe902;" glyph-name="chevron-down" d="M512 115.744l-512 512 152.511 152.511 359.489-359.489 359.489 359.489 152.511-152.511z" />
<glyph unicode="&#xe903;" glyph-name="chevron-right" d="M316.16 960l-120.32-120.32 390.736-391.68-390.736-391.68 120.32-120.32 512 512z" />
<glyph unicode="&#xe904;" glyph-name="arrow-left" d="M1024 504.866h-806.093l203.639 204.254-80.213 80.213-341.333-341.333 341.333-341.333 80.213 80.213-203.639 204.254h806.093z" />
<glyph unicode="&#xe905;" glyph-name="arrow-right" d="M0.001 391.294h806.091l-203.677-204.425 80.227-80.227 341.358 341.358-341.358 341.358-80.227-80.227 203.677-204.276h-806.091z" />
<glyph unicode="&#xe906;" glyph-name="more" d="M1024 374.873h-438.873v-438.873h-146.254v438.873h-438.873v146.254h438.873v438.873h146.254v-438.873h438.873z" />
<glyph unicode="&#xe907;" glyph-name="less" d="M1024 374.867h-1024v146.266h1024z" />
<glyph unicode="&#xe908;" glyph-name="close" d="M511.967 354.96l-418.894-418.96-93.073 93.139 418.894 418.894-418.894 418.894 93.073 93.073 418.894-418.894 418.894 418.894 93.139-93.073-418.96-418.894 418.894-418.894-93.139-93.139z" />
<glyph unicode="&#xe909;" glyph-name="check" horiz-adv-x="1345" d="M427.955 149.964l-320.946 320.988-106.982-107.024 427.928-427.928 917.018 917.018-106.982 106.982z" />
<glyph unicode="&#xe90a;" glyph-name="check-bold" horiz-adv-x="1432" d="M616.339-63.999l-616.268 616.268 199.064 199.194 417.204-407.731 616.527 616.268 199.064-199.064z" />
<glyph unicode="&#xe90b;" glyph-name="other" d="M204.802 448c0-56.554-45.846-102.401-102.401-102.401s-102.401 45.846-102.401 102.401c0 56.554 45.846 102.401 102.401 102.401s102.401-45.846 102.401-102.401zM614.401 448c0-56.554-45.846-102.401-102.401-102.401s-102.401 45.846-102.401 102.401c0 56.554 45.846 102.401 102.401 102.401s102.401-45.846 102.401-102.401zM1024 448c0-56.554-45.846-102.401-102.401-102.401s-102.401 45.846-102.401 102.401c0 56.554 45.846 102.401 102.401 102.401s102.401-45.846 102.401-102.401z" />
<glyph unicode="&#xe90c;" glyph-name="search" d="M672.64 351.362h-33.707l-11.947 11.52c41.633 48.289 66.989 111.635 66.989 180.904 0 153.403-124.357 277.76-277.76 277.76s-277.76-124.357-277.76-277.76c0-153.403 124.357-277.76 277.76-277.76 69.269 0 132.615 25.356 181.264 67.293l-0.36-0.304 11.52-11.947v-33.707l213.333-212.907 63.573 63.573zM416.64 351.362c-106.039 0-192 85.961-192 192s85.961 192 192 192c106.039 0 192-85.961 192-192v0c0-0.076 0-0.166 0-0.256 0-105.897-85.847-191.744-191.744-191.744-0.090 0-0.18 0-0.27 0h0.014z" />
<glyph unicode="&#xe90d;" glyph-name="download" d="M810.65 448v-298.65h-597.299v298.65h-85.35v-298.65c0.145-47.079 38.271-85.205 85.336-85.35h597.313c47.079 0.145 85.205 38.271 85.35 85.336v298.664zM554.65 419.43l110.49 110.080 60.16-60.16-213.299-213.35-213.35 213.35 60.16 60.16 110.49-110.080v412.57h85.35z" />
<glyph unicode="&#xe90e;" glyph-name="reload" d="M810.667 618.667l-170.667-170.667h128c0-141.227-114.773-256-256-256-41.813 0-82.773 10.24-119.467 29.867l-62.293-62.293c159.147-100.693 369.493-53.333 470.187 105.387 34.56 54.613 52.907 118.187 52.907 183.040h128l-170.667 170.667zM256 448c0 141.227 114.773 256 256 256 41.813 0 82.773-10.24 119.467-29.867l62.293 62.293c-159.147 100.693-369.493 53.333-470.187-105.387-34.56-54.613-52.907-118.187-52.907-183.040h-128l170.667-170.667 170.667 170.667h-128z" />
<glyph unicode="&#xe90f;" glyph-name="bell" d="M511.911-64c58.011 0.173 104.977 47.215 105.026 105.238v0.005h-210.051c0-0.078 0-0.169 0-0.261 0-57.98 47.002-104.982 104.982-104.982 0.015 0 0.031 0 0.046 0h-0.002zM826.989 251.078v262.564c0 161.109-86.128 296.092-236.308 331.884v35.705c0 43.503-35.266 78.769-78.769 78.769s-78.769-35.266-78.769-78.769v0-35.705c-150.702-35.705-236.308-170.123-236.308-331.884v-262.564l-105.026-105.026v-52.557h840.381v52.557z" />
<glyph unicode="&#xe910;" glyph-name="child" d="M384 458.667c-29.455 0-53.333-23.878-53.333-53.333s23.878-53.333 53.333-53.333c29.455 0 53.333 23.878 53.333 53.333v0c0 29.455-23.878 53.333-53.333 53.333v0zM640 458.667c-29.455 0-53.333-23.878-53.333-53.333s23.878-53.333 53.333-53.333c29.455 0 53.333 23.878 53.333 53.333v0c0 29.455-23.878 53.333-53.333 53.333v0zM512 874.667c-235.641 0-426.667-191.025-426.667-426.667s191.025-426.667 426.667-426.667c235.641 0 426.667 191.025 426.667 426.667v0c0 235.641-191.025 426.667-426.667 426.667v0zM512 106.667c-188.406 0.267-341.067 152.928-341.333 341.308v0.025c0.066 13.006 0.839 25.752 2.283 38.294l-0.15-1.601c100.963 45.802 179.416 126.47 221.241 226.289l1.052 2.831c78.015-109.746 204.698-180.48 347.903-180.48 0.091 0 0.181 0 0.272 0h-0.014c0.155 0 0.338 0 0.521 0 33.872 0 66.799 4.044 98.325 11.675l-2.845-0.582c8.933-29.020 14.077-62.379 14.077-96.939 0-188.23-152.591-340.821-340.821-340.821-0.179 0-0.358 0-0.537 0h0.028z" />
<glyph unicode="&#xe911;" glyph-name="smile" d="M511.573 874.666c-235.458-0.243-426.24-191.175-426.24-426.666 0-235.641 191.025-426.667 426.667-426.667s426.667 191.025 426.667 426.667v0c0 235.642-191.025 426.667-426.667 426.667-0.15 0-0.3 0-0.45 0h0.023zM512 106.666c-188.513 0-341.333 152.82-341.333 341.333s152.82 341.333 341.333 341.333c188.513 0 341.333-152.82 341.333-341.333v0c0-188.513-152.82-341.333-341.333-341.333v0zM661.333 490.666c35.346 0 64 28.654 64 64s-28.654 64-64 64c-35.346 0-64-28.654-64-64v0c0-35.346 28.654-64 64-64v0zM362.667 490.666c35.346 0 64 28.654 64 64s-28.654 64-64 64c-35.346 0-64-28.654-64-64v0c0-35.346 28.654-64 64-64v0zM512 213.332c98.667 0.25 182.999 61.353 217.469 147.75l0.557 1.583h-436.053c35.027-87.981 119.36-149.084 217.996-149.333h0.031z" />
<glyph unicode="&#xe912;" glyph-name="profil-full" d="M511.955 447.999c0.027 0 0.059 0 0.091 0 141.384 0 256 114.615 256 256s-114.615 256-256 256c-141.384 0-256-114.615-256-256 0-0.032 0-0.064 0-0.096v0.005c0-141.334 114.575-255.909 255.909-255.909v0zM511.955 319.999c-170.788 0-511.909-85.757-511.909-256v-128h1023.909v128c0 170.243-341.122 256-511.999 256z" />
<glyph unicode="&#xe913;" glyph-name="profil" d="M512 708.267c49.485 0 89.6-40.115 89.6-89.6s-40.115-89.6-89.6-89.6c-49.485 0-89.6 40.115-89.6 89.6v0c0 49.485 40.115 89.6 89.6 89.6v0zM512 324.267c126.72 0 260.267-62.293 260.267-89.6v-46.933h-520.533v46.933c0 27.307 133.547 89.6 260.267 89.6zM512 789.333c-94.257 0-170.667-76.41-170.667-170.667s76.41-170.667 170.667-170.667c94.257 0 170.667 76.41 170.667 170.667v0c0 94.257-76.41 170.667-170.667 170.667v0zM512 405.333c-113.92 0-341.333-57.173-341.333-170.667v-128h682.667v128c0 113.493-227.413 170.667-341.333 170.667z" />
<glyph unicode="&#xe914;" glyph-name="history" d="M512.013 479.075c-100.060 93.831-235.043 151.467-383.487 151.467-0.18 0-0.36 0-0.54 0h0.028v-469.333c0.152 0 0.332 0 0.513 0 148.445 0 283.428-57.636 383.792-151.75l-0.305 0.283c100.279 93.78 235.404 151.391 383.985 151.467h0.015v469.333c-0.152 0-0.332 0-0.513 0-148.445 0-283.428-57.636-383.792-151.75l0.305 0.283zM512.013 630.542c70.692 0 128 57.308 128 128s-57.308 128-128 128c-70.692 0-128-57.308-128-128v0c0-70.692 57.308-128 128-128v0z" />
<glyph unicode="&#xe915;" glyph-name="trophy" d="M910.222 846.222h-113.778v113.778h-568.889v-113.778h-113.778c-62.764-0.182-113.596-51.013-113.778-113.76v-56.906c0.418-144.435 108.605-263.474 248.357-280.956l1.392-0.142c36.861-85.702 112.117-148.737 203.504-167.983l1.858-0.328v-176.369h-227.556v-113.778h568.889v113.778h-227.556v176.369c93.261 19.59 168.521 82.656 204.653 166.54l0.709 1.851c141.144 17.624 249.331 136.663 249.749 281.055v56.852c-0.182 62.764-51.013 113.596-113.76 113.778h-0.017zM227.556 515.142c-66.581 24.246-113.349 86.813-113.778 160.361v56.941h113.778zM910.222 675.556c-0.428-73.6-47.197-136.167-112.587-160.033l-1.191-0.38v217.302h113.778z" />
<glyph unicode="&#xe916;" glyph-name="letter" d="M406.016 371.2h211.968l-105.984 282.624zM921.6 960h-819.2c-56.484-0.174-102.226-45.916-102.4-102.383v-819.217c0.174-56.484 45.916-102.226 102.383-102.4h819.217c56.484 0.174 102.226 45.916 102.4 102.383v819.217c-0.174 56.484-45.916 102.226-102.383 102.4h-0.017zM714.24 115.2l-58.368 153.6h-288.768l-57.344-153.6h-107.008l261.632 665.6h95.232l261.632-665.6h-107.008z" />
<glyph unicode="&#xe917;" glyph-name="warning" d="M512 960c-282.77 0-512-229.23-512-512s229.23-512 512-512c282.77 0 512 229.23 512 512v0c-0.1 282.729-229.27 511.9-511.99 512h-0.010zM563.2 192h-102.4v102.4h102.4zM563.2 396.8h-102.4v307.2h102.4z" />
<glyph unicode="&#xe918;" glyph-name="local" horiz-adv-x="717" d="M358.5 960c-197.939 0-358.4-160.461-358.4-358.4v0c0-268.8 358.4-665.6 358.4-665.6s358.4 396.8 358.4 665.6c0 197.939-160.461 358.4-358.4 358.4v0zM358.5 473.6c-70.692 0-128 57.308-128 128s57.308 128 128 128c70.692 0 128-57.308 128-128v0c0-70.692-57.308-128-128-128v0z" />
<glyph unicode="&#xe919;" glyph-name="clock" d="M511.539 960c-282.571-0.263-511.539-229.393-511.539-512 0-282.769 229.231-512 512-512s512 229.231 512 512v0c0 0.091 0 0.199 0 0.307 0 282.6-229.093 511.693-511.693 511.693-0.27 0-0.54 0-0.81-0.001h0.042zM512.077 38.446c-226.19 0-409.554 183.364-409.554 409.554s183.364 409.554 409.554 409.554c226.19 0 409.554-183.364 409.554-409.554v0c0-0.023 0-0.050 0-0.077 0-226.148-183.329-409.477-409.477-409.477-0.028 0-0.054 0-0.082 0h0.005zM537.65 703.962h-76.796v-307.185l268.787-161.272 38.398 62.973-230.388 136.697z" />
<glyph unicode="&#xe91a;" glyph-name="lenght" d="M930.909 727.273h-837.818c-51.346-0.165-92.926-41.745-93.091-93.075v-372.38c0.165-51.346 41.745-92.926 93.075-93.091h837.834c51.346 0.165 92.926 41.745 93.091 93.075v372.38c-0.165 51.346-41.745 92.926-93.075 93.091h-0.016zM930.909 261.819h-837.818v372.364h93.091v-186.182h93.091v186.182h93.091v-186.182h93.091v186.182h93.091v-186.182h93.091v186.182h93.091v-186.182h93.091v186.182h93.091z" />
<glyph unicode="&#xe91b;" glyph-name="height" d="M791.273 29.091v837.818c-0.165 51.346-41.745 92.926-93.075 93.091h-372.38c-51.346-0.165-92.926-41.745-93.091-93.075v-837.834c0.165-51.346 41.745-92.926 93.075-93.091h372.38c51.346 0.165 92.926 41.745 93.091 93.075v0.016zM325.819 29.091v837.818h372.364v-93.091h-186.182v-93.091h186.182v-93.091h-186.182v-93.091h186.182v-93.091h-186.182v-93.091h186.182v-93.091h-186.182v-93.091h186.182v-93.091z" />
<glyph unicode="&#xe91c;" glyph-name="stroller" d="M576 875.014v-341.333h341.333c0 188.513-152.82 341.333-341.333 341.333v0zM845.653 282.374c44.695 56.899 71.68 129.555 71.68 208.513 0 0.045 0 0.089 0 0.134v-0.007h-621.227l-40.533 85.333h-148.907v-85.333h94.72s80.64-173.653 90.453-188.587c-47.207-25.716-78.705-74.967-78.705-131.575 0-82.475 66.859-149.333 149.333-149.333 75.006 0 137.096 55.298 147.726 127.349l0.099 0.813h88.747c10.492-73.118 72.706-128.694 147.9-128.694 82.475 0 149.333 66.859 149.333 149.333 0 44.556-19.514 84.555-50.461 111.916l-0.159 0.138zM362.666 107.014c-35.346 0-64 28.654-64 64s28.654 64 64 64c35.346 0 64-28.654 64-64v0c0-35.346-28.654-64-64-64v0zM746.666 107.014c-35.346 0-64 28.654-64 64s28.654 64 64 64c35.346 0 64-28.654 64-64v0c0-35.346-28.654-64-64-64v0z" />
<glyph unicode="&#xe91d;" glyph-name="cake" d="M512.244 661.335c47.128 0 85.333 38.205 85.333 85.333v0c0.003 0.265 0.005 0.578 0.005 0.892 0 15.959-4.611 30.84-12.574 43.385l0.196-0.33-72.96 126.72-72.96-126.72c-7.767-12.214-12.378-27.096-12.378-43.055 0-0.314 0.002-0.627 0.005-0.94v0.048c0.145-47.070 38.264-85.188 85.319-85.333h0.014zM708.511 235.095l-45.653 45.653-46.080-45.653c-27.076-25.854-63.84-41.765-104.32-41.765s-77.244 15.911-104.379 41.82l0.059-0.056-45.653 45.653-46.507-45.653c-26.539-26.622-63.246-43.094-103.801-43.094-0.108 0-0.215 0-0.323 0h0.017c-31.261 0.058-60.239 9.785-84.116 26.348l0.49-0.322v-196.693c0-23.564 19.103-42.667 42.667-42.667v0h682.667c23.564 0 42.667 19.103 42.667 42.667v0 196.693c-23.387-16.242-52.365-25.968-83.612-26.027h-0.015c-0.091 0-0.198 0-0.306 0-40.555 0-77.262 16.472-103.797 43.090l-0.004 0.004zM768.244 533.335h-213.333v85.333h-85.333v-85.333h-213.333c-70.692 0-128-57.308-128-128v0-65.707c0.073-46.156 37.47-83.554 83.62-83.627h0.007c0.192-0.002 0.418-0.003 0.645-0.003 22.779 0 43.385 9.302 58.228 24.315l0.008 0.008 91.307 90.88 90.88-90.88c15.334-14.654 36.16-23.674 59.093-23.674s43.76 9.020 59.126 23.705l-0.032-0.031 91.307 90.88 90.88-90.88c14.961-15.024 35.662-24.321 58.536-24.321 0.121 0 0.242 0 0.363 0.001h-0.019c46.156 0.073 83.554 37.47 83.627 83.62v65.714c0.002 0.241 0.003 0.526 0.003 0.811 0 70.245-56.945 127.189-127.189 127.189-0.136 0-0.272 0-0.408-0.001h0.021z" />
<glyph unicode="&#xe91e;" glyph-name="calendar" d="M725.333 405.333h-213.333v-213.333h213.333zM682.667 874.666v-85.333h-341.333v85.333h-85.333v-85.333h-42.667c-46.898-0.024-84.908-38.048-84.908-84.949 0-0.135 0-0.27 0.001-0.405v0.021l-0.427-597.333c0-47.128 38.205-85.333 85.333-85.333v0h597.333c47.070 0.145 85.188 38.264 85.333 85.319v597.347c-0.145 47.070-38.264 85.188-85.319 85.333h-42.681v85.333zM810.667 106.666h-597.333v469.333h597.333z" />
<glyph unicode="&#xe91f;" glyph-name="email" d="M853.334 789.333h-682.667c-46.944-0.242-84.907-38.354-84.907-85.332 0 0 0-0.001 0-0.001v0l-0.427-512c0.145-47.070 38.264-85.188 85.319-85.333h682.681c47.070 0.145 85.188 38.264 85.333 85.319v512.014c-0.145 47.070-38.264 85.188-85.319 85.333h-0.014zM853.334 618.667l-341.333-213.333-341.333 213.333v85.333l341.333-213.333 341.333 213.333z" />
<glyph unicode="&#xe920;" glyph-name="email-open" d="M1023.459 576.012c0.001 0.21 0.002 0.458 0.002 0.708 0 36.285-19.038 68.123-47.67 86.069l-463.791 271.609-463.367-271.361c-29.369-18.241-48.633-50.322-48.633-86.902 0-0.043 0-0.086 0-0.131v0.007-512c0.154-56.497 45.912-102.256 102.394-102.409h819.197c56.497 0.154 102.256 45.912 102.409 102.394v0.014zM512 319.989l-422.9 264.189 422.9 247.811 422.9-247.811z" />
<glyph unicode="&#xe921;" glyph-name="pen" d="M0 149.33v-213.329h213.329l629.147 629.147-213.329 213.169zM1007.415 730.245c10.248 10.254 16.585 24.417 16.585 40.059s-6.337 29.805-16.586 40.060v0l-133.104 133.050c-10.254 10.248-24.417 16.585-40.059 16.585s-29.805-6.337-40.060-16.586l-104.208-104.101 213.329-213.329z" />
<glyph unicode="&#xe922;" glyph-name="lock" horiz-adv-x="781" d="M683.371 622.109h-48.798v97.596c-3.899 131.8-111.674 237.159-244.057 237.159s-240.159-105.359-244.049-236.801l-0.008-0.358v-97.563h-48.831c-53.847-0.152-97.459-43.752-97.629-97.58v-487.864c0.189-53.83 43.795-97.411 97.615-97.563h585.76c53.835 0.151 97.44 43.733 97.629 97.545v487.866c-0.189 53.83-43.795 97.411-97.615 97.563h-0.015zM390.483 183.060c-53.854 0.038-97.496 43.703-97.496 97.563 0 53.883 43.68 97.563 97.563 97.563s97.563-43.68 97.563-97.563v0c-0.189-53.83-43.795-97.411-97.615-97.563h-0.015zM541.827 622.109h-302.656v97.596c0 83.567 67.744 151.311 151.311 151.311s151.311-67.744 151.311-151.311v0z" />
<glyph unicode="&#xe923;" glyph-name="eye" d="M512 768c-207.36 0-393.387-127.147-469.333-320 101.547-259.413 394.24-386.987 653.653-285.013 130.56 51.2 233.813 154.453 285.013 285.013-75.947 192.853-261.973 320-469.333 320zM512 234.667c-117.76 0-213.333 95.573-213.333 213.333s95.573 213.333 213.333 213.333 213.333-95.573 213.333-213.333-95.573-213.333-213.333-213.333zM512 576c-70.827 0-128-57.173-128-128s57.173-128 128-128 128 57.173 128 128-57.173 128-128 128z" />
<glyph unicode="&#xe924;" glyph-name="eye-slash" d="M512 661.333c117.76 0 213.333-95.573 213.333-213.333 0-26.88-5.12-53.333-15.36-78.080l124.587-124.587c64.853 54.187 115.2 123.733 146.347 202.667-75.947 192.853-261.973 320-469.333 320-58.027 0-115.2-10.24-169.813-29.867l92.16-92.16c24.747 10.24 51.2 15.36 78.080 15.36zM85.333 777.813l116.907-116.907c-71.253-55.467-126.293-128.853-159.573-212.907 101.973-259.413 394.667-386.987 654.080-285.013 0.853 0.427 1.707 0.427 2.133 0.853l17.92-17.92 125.013-124.587 54.187 54.187-756.48 756.48-54.187-54.187zM321.28 541.867l66.133-66.133c-2.133-8.96-3.413-18.347-3.413-27.733 0-70.827 57.173-128 128-128 9.387 0 18.773 1.28 27.733 3.413l66.133-66.133c-104.533-52.48-232.107-10.667-284.587 93.867-30.293 60.16-30.293 130.987 0 190.72zM505.173 575.147l134.4-134.4 0.853 6.827c0 70.827-57.173 128-128 128l-7.253-0.427z" />
<glyph unicode="&#xe925;" glyph-name="like" horiz-adv-x="1116" d="M703.918 832.055c-73.798-0.437-144.102-33.187-192.136-89.081-48.034 55.894-117.902 88.645-192.136 89.081-127.945 1.31-233.184-101.745-234.494-230.127 0-1.31 0-3.057 0-4.367 0-161.133 144.976-292.571 364.623-492.131l62.008-55.894 62.008 56.331c219.647 199.123 364.623 330.562 364.623 491.695 1.31 128.382-101.745 233.184-230.127 234.494-1.31 0-3.057 0-4.367 0z" />
<glyph unicode="&#xe926;" glyph-name="unlike" horiz-adv-x="1116" d="M703.918 832.055c-73.798-0.437-144.102-33.187-192.136-89.081-48.034 55.894-117.902 88.645-192.136 89.081-127.945 1.31-233.184-101.745-234.494-230.127 0-1.31 0-3.057 0-4.367 0-161.133 144.976-292.571 364.623-492.131l62.008-55.894 62.008 56.331c219.647 199.123 364.623 330.562 364.623 491.695 1.31 128.382-101.745 233.184-230.127 234.494-1.31 0-3.057 0-4.367 0zM516.148 168.747l-4.367-4.367-4.367 4.367c-203.053 183.84-337.112 305.235-337.112 428.814-1.747 80.348 62.008 147.159 142.792 149.342 2.183 0 4.803 0 6.987 0 66.374-0.437 126.199-39.737 152.399-100.872h79.911c25.764 60.698 85.588 100.435 151.962 100.872 80.348 1.747 147.159-61.571 149.342-142.356 0-2.183 0-4.803 0-6.987-0.437-123.579-134.496-244.974-337.549-428.814z" />
<glyph unicode="&#xe927;" glyph-name="external-link" d="M910.222 49.777h-796.443v796.443h398.222v113.777h-398.222c-62.837 0-113.777-50.94-113.777-113.777v0-796.443c0-62.837 50.94-113.777 113.777-113.777v0h796.443c62.76 0.193 113.584 51.019 113.777 113.759v398.241h-113.777zM625.777 959.998v-113.777h204.23l-559.217-559.217 80.213-80.213 559.217 559.217v-204.23h113.777v398.222z" />
<glyph unicode="&#xe928;" glyph-name="facebook" d="M512 960c-282.77 0-512-229.23-512-512s229.23-512 512-512c282.77 0 512 229.23 512 512 0 0.085 0 0.169 0 0.254v-0.013c-0.137 282.667-229.315 511.759-512 511.759 0 0-0.001 0-0.001 0h0.001zM625.039 534.697l-6.021-76.584h-78.54v-266.084h-99.341v266.175h-52.921v76.584h52.921v51.446c-0.339 3.62-0.532 7.828-0.532 12.081 0 24.718 6.529 47.911 17.955 67.948l-0.355-0.676c17.321 23.596 44.956 38.743 76.128 38.743 2.215 0 4.413-0.077 6.59-0.227l-0.294 0.016c4.347 0.203 9.442 0.319 14.564 0.319 28.522 0 56.207-3.586 82.629-10.331l-2.306 0.499-13.216-78.269c-12.677 3.645-27.306 5.947-42.404 6.376l-0.253 0.006c-20.59 0-39.135-7.406-39.135-27.966v-59.815z" />
<glyph unicode="&#xe929;" glyph-name="instagram" d="M708.817 558.149v86.879h-11.319l-75.5-0.241 0.301-86.788zM512.060 357.9c49.642 0.069 89.859 40.327 89.859 89.979 0 49.694-40.285 89.979-89.979 89.979-49.652 0-89.911-40.216-89.979-89.852v-0.007c0.12-49.712 40.387-89.98 90.088-90.1h0.012zM512 960c-282.77 0-512-229.23-512-512s229.23-512 512-512c282.77 0 512 229.23 512 512v0c0 282.77-229.23 512-512 512v0zM768.060 500.561v-209.611c-0.051-54.628-44.322-98.899-98.945-98.95h-314.075c-54.634 0.051-98.912 44.319-98.98 98.944v314.107c0.068 54.632 44.346 98.899 98.975 98.95h314.075c54.628-0.051 98.899-44.322 98.95-98.945v-0.005zM652.071 448c0-0.084 0-0.184 0-0.283 0-77.326-62.685-140.011-140.011-140.011s-140.011 62.685-140.011 140.011c0 19.052 3.805 37.215 10.697 53.77l-0.342-0.926h-76.433v-209.611c0.017-27.093 21.976-49.052 49.067-49.069h314.071c27.093 0.017 49.052 21.976 49.069 49.067v209.613h-76.433c6.516-15.544 10.308-33.607 10.325-52.554v-0.007z" />
<glyph unicode="&#xe92a;" glyph-name="youtube" d="M443.756 349.291l167.616 98.468-167.616 98.348zM511.97 960c-282.757-0.017-511.97-229.241-511.97-512 0-282.77 229.23-512 512-512s512 229.23 512 512v0c0 282.77-229.23 512-512 512-0.011 0-0.021 0-0.032 0h0.002zM768 356.455c0.012-0.535 0.019-1.165 0.019-1.796 0-47.732-38.695-86.427-86.427-86.427-0.652 0-1.303 0.007-1.952 0.022l0.097-0.002h-335.563c-0.544-0.012-1.184-0.019-1.826-0.019-47.699 0-86.367 38.668-86.367 86.367 0 0.652 0.007 1.303 0.022 1.952l-0.002-0.097v183.059c-0.013 0.561-0.021 1.223-0.021 1.886 0 47.699 38.668 86.367 86.367 86.367 0.642 0 1.283-0.007 1.922-0.021l-0.095 0.002h335.563c0.552 0.013 1.203 0.020 1.856 0.020 47.732 0 86.427-38.695 86.427-86.427 0-0.642-0.007-1.283-0.021-1.921l0.002 0.095z" />
<glyph unicode="&#xe92b;" glyph-name="pinterest" d="M512 960c-282.77 0-512-229.23-512-512s229.23-512 512-512c282.77 0 512 229.23 512 512 0 0.085 0 0.169 0 0.254v-0.013c-0.154 282.659-229.321 511.742-511.998 511.759h-0.002zM512 193.354c-0.007 0-0.016 0-0.024 0-25.855 0-50.813 3.839-74.335 10.978l1.81-0.472c10.512 15.767 19.274 33.942 25.358 53.302l0.411 1.516c3.010 11.409 18.062 70.382 18.062 70.382 13.385-19.391 35.485-31.936 60.515-31.936 0.696 0 1.39 0.010 2.082 0.029l-0.102-0.002c82.333 0 138.145 75.018 138.145 175.443-3.354 81.853-70.524 146.94-152.895 146.94-3.23 0-6.437-0.1-9.618-0.297l0.436 0.022c-121.618 0-182.939-87.3-182.939-159.94-0.35-3.119-0.55-6.734-0.55-10.396 0-37.782 21.253-70.6 52.456-87.151l0.534-0.259c1.185-0.632 2.592-1.004 4.086-1.004 4.375 0 8.007 3.186 8.701 7.364l0.007 0.051c1.174 4.485 4.004 15.865 5.238 20.531 0.561 1.369 0.887 2.958 0.887 4.624 0 3.891-1.779 7.367-4.568 9.658l-0.022 0.017c-10.533 12.679-16.925 29.126-16.925 47.066 0 1.107 0.024 2.208 0.072 3.303l-0.005-0.156c-0.006 0.431-0.009 0.941-0.009 1.451 0 66.952 54.275 121.227 121.227 121.227 1.697 0 3.386-0.035 5.066-0.104l-0.24 0.008c68.696 0 106.506-42.145 106.506-98.107 0-73.814-32.662-136.098-81.279-136.098-0.588-0.031-1.277-0.049-1.969-0.049-21.879 0-39.616 17.737-39.616 39.616 0 3.461 0.444 6.818 1.278 10.018l-0.061-0.276c9.092 25.569 16.944 56.155 22.14 87.638l0.438 3.215c0.159 1.239 0.249 2.673 0.249 4.128 0 18.937-15.351 34.288-34.288 34.288-0.172 0-0.344-0.001-0.516-0.004h0.026c-27.364 0-49.37-28.297-49.37-66.228-0.005-0.361-0.008-0.788-0.008-1.216 0-14.203 3.005-27.704 8.414-39.902l-0.249 0.628s-27.996-118.728-32.903-139.5c-3.054-13.91-4.803-29.888-4.803-46.274 0-4.404 0.126-8.778 0.376-13.119l-0.028 0.601c-90.929 40.582-153.158 130.202-153.158 234.356 0 141.318 114.561 255.88 255.88 255.88s255.88-114.561 255.88-255.88c0-141.311-114.549-255.868-255.857-255.88h-0.001z" />
<glyph unicode="&#xe92c;" glyph-name="draw-socks" d="M855.315 498.591c-50.427 16.535-105.514 26.584-150.46 56.365-60.385 40.013-33.161 112.914-5.207 164.803 31.335 58.193 74.271 131.459-10.049 163.889-49.148 18.91-111.086 15.621-162.885 15.165-64.953-0.548-129.175-2.74-193.123 10.597-24.392 5.115-43.576-40.744-16.717-46.226 3.471-0.731 6.943-1.279 10.414-1.919 1.279-2.649 2.466-5.299 3.654-7.948-0.64-2.649-0.365-5.39 0.731-7.857 6.76-14.068 12.241-28.594 19.093-41.475 3.837-11.419 7.217-22.93 9.958-34.441-48.875 28.137-226.741 52.346-250.493 53.077-12.333-1.919-21.011-13.155-19.824-25.579 17.449-75.459 26.036-150.369-1.644-224.457-23.295-62.303-67.876-114.558-84.137-179.876-15.074-56.365 7.491-116.111 56-148.45 50.427-34.806 119.674-25.944 176.131-43.85 60.75-19.276 94.278-89.070 131.184-135.935 36.268-46.134 81.031-76.189 140.777-78.199 55.818-1.919 112.183 29.507 144.157 74.454 11.054 2.284 18.728 16.626 18.91 27.589 0 3.198 0 6.395 0 9.592 9.136 30.056 8.313 62.303-2.193 91.902 8.496-6.395 16.809-12.607 25.031-18.088 106.793-70.708 298.637-32.065 325.677 109.077 22.839 119.491-63.491 184.535-164.803 217.789zM612.861 216.673c-18.545 7.308-38.917 8.222-58.010 2.558-65.41-16.17-120.953-73.266-142.512-136.939-0.822-1.096-1.644-2.101-2.284-3.289-28.046 30.421-49.697 67.328-75.733 99.211-31.517 39.374-77.012 65.044-126.982 71.621-8.77 1.461-17.631 2.649-26.584 3.837-0.914 10.871-1.005 21.743-0.456 32.613 8.953 37.912 43.759 73.084 54.081 109.899 2.558 9.044 0 23.478-12.79 21.743-35.811-3.563-71.896-0.274-106.519 9.683-13.429 3.289-26.584 6.669-40.195 9.136-4.842 0.822-9.683 1.919-14.525 3.015-1.096 0.274-2.010 0.456-2.923 0.64 5.39 11.237 11.237 22.199 16.9 32.522 26.402 48.235 51.706 95.374 62.943 149.729 3.837 19.093 5.664 38.46 5.573 57.828 32.979-2.558 66.141-1.736 98.937 2.375 28.502-5.39 56.731-12.425 84.411-19.459 3.928-4.477 10.232-6.029 15.896-4.111l13.155-3.38c5.207-1.188 10.597 0.183 14.617 3.654-1.005-13.612-2.832-27.223-5.299-40.744-14.068-74.728-48.601-146.715-55.818-222.539-1.736-3.745-2.466-7.857-2.010-11.967 0.274-1.644 0.64-3.198 0.914-4.842-0.274-6.669-0.365-13.246-0.091-20.006 3.015-84.228 72.17-140.411 153.932-129.814 41.383 5.39 76.464 17.54 118.761 9.683 12.881-2.558 25.214-7.217 36.724-13.612-1.828-2.832-3.198-5.847-4.111-9.044zM723.582 198.95c-37.546 21.194-68.698 51.341-108.894 68.059-32.157 13.429-62.943 10.78-93.638 5.482 5.115 6.852 6.395 15.713 3.654 23.752-21.103 48.601-35.536 98.663-11.237 148.999 6.029 12.425-4.842 30.603-19.459 23.843-43.302-20.006-102.408-46.226-152.927-43.119 4.659 23.387 12.058 46.499 18.362 68.79 17.996 63.674 39.1 129.266 39.283 196.137 0.091 23.66-2.923 47.138-8.953 69.977 4.659-2.558 9.592-4.75 14.617-6.487 3.745-2.832 7.674-5.664 11.785-8.222 4.111-2.832 9.501-2.923 13.703-0.183 33.801-9.227 68.698-14.342 103.778-15.165 35.994-1.736 100.307-2.466 141.69 19.55-12.972-22.29-24.574-45.312-34.715-69.064-17.084-44.307-19.55-97.109 8.678-137.123 24.665-34.897 70.982-50.519 109.716-63.034 25.944-8.313 54.721-15.713 82.949-24.757-36.816-47.047-71.074-92.45-92.633-149.638-12.79-33.892-20.829-82.584-5.39-118.212-6.943 3.015-13.795 6.303-20.372 10.049z" />
<glyph unicode="&#xe92d;" glyph-name="draw-body" d="M1014.856 801.314c-8.541 3.47-16.95 7.474-24.958 11.879 0.667 5.339-4.805 7.207-10.277 6.006-30.163 20.286-58.591 42.976-85.283 67.8-33.766 29.095-73.539 60.459-119.984 62.061-46.846 1.735-89.954-27.894-130.927-46.312-50.182-22.689-98.763-42.041-154.818-32.566-80.478 13.613-130.527 111.175-218.88 85.55-96.761-28.028-169.232-106.904-258.519-150.947-4.671-0.934-9.609-6.14-6.407-9.876 48.047-57.123 89.154-119.45 122.653-186.049 3.069-5.873 12.946-5.072 17.484-1.735 36.97 28.16 72.471 57.924 111.175 83.549-9.743-70.869-3.47-143.073-2.002-214.209 3.737-86.484-6.14-173.102-29.362-256.517-2.002-5.339 0.801-11.345 6.14-13.346 1.869-0.667 4.004-0.801 6.006-0.4 127.458 19.352 221.016-147.744 207.135-257.852-1.068-8.942 7.74-12.946 15.215-12.279 21.087 2.002 41.507 8.274 62.461 10.944 23.623 3.069 47.38-4.938 71.003-5.739 11.078-0.801 20.954 6.94 22.689 17.884 2.669 54.72 27.761 106.637 58.057 151.347 29.896 44.176 71.937 87.285 124.388 102.5 9.075 2.802 14.948 11.612 14.013 20.954-26.426 153.884-35.902 310.303-28.294 466.189 50.049-22.689 88.887-68.868 120.117-112.376 5.472-5.472 14.28-5.472 19.752 0 0.934 0.934 1.735 2.002 2.403 3.203 33.766 63.663 90.488 126.39 94.359 201.531 0.267 3.737-1.869 7.074-5.339 8.408zM260.387 936.779c46.178 16.283 80.879-2.802 116.514-30.83 32.032-27.894 70.736-46.979 112.376-55.254 45.111-7.74 90.889 5.472 132.129 22.689 44.577 18.685 87.686 48.847 136.266 55.654 25.625 2.136 51.117-5.072 71.803-20.286-20.286-18.551-44.043-32.832-70.068-41.774-23.089-9.876-46.178-19.486-69.935-27.093-52.451-16.416-107.038-24.691-162.025-24.824-105.436-0.667-217.412 32.566-289.215 112.91 7.207 3.203 14.547 6.273 22.155 8.942zM234.895 926.502c65.53-94.759 182.044-126.523 292.953-126.657 57.657 0 115.045 9.075 170.033 26.426 28.028 9.342 55.521 20.153 82.347 32.432 23.356 9.342 44.71 23.089 62.862 40.439 11.078-8.274 21.621-17.351 31.498-26.026-46.579-47.78-119.183-68.734-182.578-84.349-61.794-15.215-125.056-23.222-188.584-24.023-119.851-1.602-255.449 26.292-332.591 125.989 20.42 13.479 41.774 25.492 63.796 35.902zM144.407 634.75c-34.433 61.26-77.142 117.581-126.79 167.23 16.683 6.006 32.832 13.212 48.314 21.755-4.404-27.36 15.615-56.055 32.032-75.941 13.746-16.016 28.694-30.964 44.71-44.577 13.346-12.812 27.627-24.824 42.575-35.768-13.746-10.677-27.36-21.621-40.84-32.566zM266.793 724.172c-23.089-13.88-45.378-28.961-66.732-45.378-8.541 8.675-17.884 16.683-27.761 23.89-15.615 12.812-30.964 25.892-45.911 39.505-26.292 23.89-48.847 50.449-53.519 85.55 16.817 9.476 33.099 19.886 49.248 30.697 19.486-70.869 85.55-99.297 145.608-133.597-0.4-0.133-0.667-0.267-0.934-0.534zM123.72 858.97c14.948 9.876 29.762 20.019 44.71 29.762 67.132-110.641 210.072-137.467 330.189-138.135 68.2 0 136.133 8.007 202.33 24.157 65.397 15.749 138.268 37.771 187.249 86.351 12.546-11.078 24.958-22.022 37.771-32.566-41.24-39.905-93.024-67.266-149.213-78.877-52.451-12.546-106.103-17.884-157.487-34.433-19.619 8.808-41.908 9.342-61.927 1.468-0.667 1.468-2.136 2.403-3.737 2.269-43.642 1.869-88.62-9.609-132.129-12.812-47.246-3.603-105.569-3.47-144.541 27.894-0.133 0.133-0.534 0-0.267-0.267 1.068-1.201 2.269-2.269 3.47-3.47-60.726 33.232-130.927 59.925-156.419 128.793zM579.098 511.698c-9.743-15.348-26.826-24.691-44.977-24.424-15.615 2.802-30.563 8.408-44.176 16.55-32.165 14.147-60.192 36.436-81.279 64.596-17.751 25.759-20.553 67.666 2.002 91.422 24.691 26.026 64.73 4.404 85.283-14.948 0.934-0.934 2.136-1.468 3.47-1.602-1.201-10.677 0-21.354 3.203-31.631 1.602-4.805 8.675-1.869 9.075 2.269 3.069 30.697 20.286 58.324 46.445 74.606 25.625 15.348 52.852-2.669 60.592-27.494 15.882-50.716-10.277-109.307-39.772-149.48zM638.222 568.819c14.414 4.271 28.828 9.209 43.109 13.613 21.621 6.54 43.909 12.279 64.997 20.553-0.267-13.613-0.4-27.093-0.534-40.706-21.621-8.942-44.043-16.149-66.865-21.621-22.155-4.271-44.043-9.876-65.53-16.817 9.876 14.013 18.151 29.095 24.824 44.977zM278.404 650.633c1.068 22.022 3.603 44.043 7.608 65.797 0.801 2.936-0.267 6.14-2.936 7.874 0.4 0.801 0.534 1.735 0.267 2.669 32.032-28.694 74.873-32.432 117.315-31.498 45.378 1.068 91.289 6.94 136.533 11.478-16.149-11.078-28.16-27.093-34.3-45.645-24.157 20.553-58.191 33.766-88.353 18.017-17.084-9.209-29.228-25.225-33.632-44.176-0.934 0.801-2.002 1.201-3.203 1.335-27.36 3.47-54.72 3.87-81.947 8.942-5.873 1.468-11.745 3.203-17.484 5.339zM277.871 642.492c8.675-3.203 18.818-7.074 20.82-7.608 24.557-5.606 49.515-9.075 74.606-10.41 2.136 0 4.137 0.801 5.739 2.269-2.136-14.28-1.335-28.961 2.269-42.976 3.47-12.146 9.209-23.623 17.217-33.499-19.085 1.602-38.171 1.602-57.39 2.669-14.681 0.667-40.172 0-51.918 10.944-0.667 0.667-2.002 0-2.269-0.801-9.075-24.557 94.625-24.958 108.106-26.159 4.137 0 7.74 2.536 9.209 6.407 18.551-19.085 40.039-35.101 63.663-47.38-62.728-5.339-125.856-3.069-188.050 6.673-1.468 46.712-4.137 93.558-2.136 140.137zM476.732 483.27c2.802 0.267 5.339 2.002 6.673 4.538 31.631-15.482 66.064-24.691 96.494 0 9.876 8.141 18.818 17.351 26.559 27.494 0.934-0.4 2.002-0.4 2.936 0 42.575 14.147 94.492 10.143 136.133 28.294 0-14.948 0.4-29.896 0.801-44.977-73.806-59.925-182.311-76.341-274.267-85.016-38.704-4.137-77.81-5.472-116.781-4.004-17.217 0.4-34.3 3.069-50.85 7.874-11.745 3.737-14.948 12.146-23.89 18.151h-0.133c0.133 10.010 0.133 19.886 0 29.896 0 11.345-0.267 22.689-0.667 34.033 64.196-16.416 130.794-22.022 196.725-16.416zM746.862 476.73c0.667-17.618 1.602-35.234 2.936-52.852-73.672-52.852-167.23-64.73-254.915-76.875-41.774-6.273-83.949-9.476-126.123-9.342-29.495 0.4-68.467 2.936-91.956 23.623 1.602 18.952 2.669 37.904 3.203 56.989 10.944-11.745 41.507-19.219 49.515-20.687 42.976-6.14 86.618-7.074 129.861-2.669 45.244 3.737 90.088 10.544 134.398 20.42 54.72 9.876 106.904 30.697 153.216 61.26zM582.168-25.627c-16.95 2.936-34.166 4.271-51.384 3.603-18.017-2.403-35.902-5.739-53.652-10.010 0.267 10.010 0 20.019-1.068 30.029 13.88-3.336 28.16-4.805 42.308-4.271 22.956-2.136 46.178 0 68.334 6.14-2.002-8.408-3.47-16.95-4.671-25.492zM591.243 17.348c-0.934 0.267-1.869 0.4-2.936 0.534-19.886-1.335-39.772-3.87-59.391-7.608-17.751-1.735-36.569 0.4-54.186-2.136-2.403 17.217-6.407 34.166-11.879 50.583 42.709-12.146 98.63-27.627 139.737-9.876-4.271-10.277-8.141-20.82-11.345-31.498zM773.554 236.495c-52.451-21.488-94.092-64.196-126.79-109.441-9.876-13.613-18.818-27.761-26.96-42.442-1.068-0.4-2.136-0.801-3.203-1.468-24.023-18.284-54.052-26.693-84.083-23.623-24.424 1.201-48.448 6.14-72.871 7.874-8.541 23.222-19.886 45.244-33.632 65.797 0.267 0 0.534-0.267 0.801-0.267 73.138-18.418 154.551-34.3 223.418 6.807 15.215 9.075 3.47 26.96-11.745 18.418-64.196-36.035-137.2-25.625-207.269-16.55-3.336-0.133-6.14-2.669-6.673-6.006-12.946 18.952-28.16 36.035-45.511 51.117 48.981-14.013 107.972-8.808 153.216-4.538 39.105 3.737 78.077 9.609 116.514 17.751 43.376 9.209 82.881 30.697 122.119 51.117 0.934-4.805 1.735-9.609 2.669-14.28zM754.469 367.69c-32.566-13.88-63.663-30.964-97.028-43.509-41.374-15.615-83.949-28.028-127.191-37.237-84.882-18.017-176.039-22.823-259.453 4.271-1.468 0.534-3.47-1.735-1.735-2.536 77.276-39.905 169.232-37.37 252.913-23.356 45.645 7.874 90.488 19.752 134.131 35.234 34.834 10.944 68.734 25.091 101.032 42.041 2.669-22.289 5.739-44.443 9.342-66.598-35.635-20.82-73.138-38.038-112.243-51.25-35.768-9.743-71.937-17.217-108.64-22.422-62.595-10.010-137.601-18.151-198.594 7.074-6.94 4.137-14.28 7.74-21.621 10.811-1.468 0.801-2.802 1.735-4.271 2.536-0.534 0.267-1.335 0.267-1.735-0.267-20.687 7.874-42.709 11.478-64.863 10.41 10.677 39.772 17.751 80.478 21.354 121.585 17.884-17.217 44.71-23.089 68.601-26.826 44.31-5.472 89.154-5.472 133.464 0 93.291 9.075 193.522 20.42 273.467 72.604 0.934-10.944 1.869-21.888 3.069-32.832zM772.754 732.579c-9.609 1.201-18.685-4.938-21.221-14.28-0.534-1.335-0.801-2.669-0.934-4.004-0.4-6.807-0.801-13.613-1.201-20.42-17.751-6.94-35.101-14.681-52.051-23.489-4.137-1.735-36.703-7.74-36.836-11.345 0-0.801 0-1.602 0-2.403-0.133-1.735 0.801-3.336 2.403-3.87 14.28-2.269 28.828-0.534 42.041 5.339 14.28 4.404 29.228 9.342 43.376 15.215-0.934-17.618-1.602-35.368-2.136-52.985-20.553-7.074-40.706-15.081-61.126-22.155-13.746-4.805-28.16-9.609-42.041-15.348 12.946 38.171 14.948 79.144-2.936 111.175-4.137 7.474-10.010 13.88-17.084 18.551 106.637 15.081 238.766 21.087 314.707 106.237 8.541-6.54 17.484-12.812 26.559-18.551-10.811-24.958-26.96-47.113-47.38-65.13-20.82-17.618-46.846-28.16-68.868-43.776-21.888 18.952-47.513 32.966-75.273 41.24zM914.492 618.335c-17.618 24.557-37.771 47.113-60.058 67.533 53.919 17.484 98.763 55.387 124.789 105.703 5.205-2.802 10.41-5.339 15.882-7.74-6.006-60.726-48.981-113.444-80.612-165.362z" />
<glyph unicode="&#xe92e;" glyph-name="draw-balloon" d="M728.199 851.388c-38.349 62.829-114 102.461-185.922 108.172v0c-65.51 3.963-129.854-19-178.112-63.528-11.773-4.546-22.847-10.608-32.988-18.067-13.755-10.608-25.761-23.43-35.319-38.001-19.35-31.24-31.24-66.442-34.62-103.044-9.208-80.896 12.123-166.105 47.675-238.376 31.822-64.693 79.847-130.437 149.553-157.129 6.294-2.447 12.706-4.429 19.233-5.945-1.748-2.565-1.982-5.828-0.583-8.509-10.491-12.589-19.816-25.993-27.976-40.099-1.982-2.565-1.748-6.294 0.699-8.509 19.7-16.436 43.362-27.393 68.657-31.822 4.546-0.35 8.626 3.030 8.975 7.693 0 0.466 0 0.933 0 1.282-2.447 20.399-9.558 39.982-20.981 57.233 24.129-10.491 44.062-29.025 56.184-52.338 10.608-24.245 4.313-50.705-5.595-73.903-23.779-55.602-67.957-100.013-91.387-155.847-13.405-31.939-14.687-67.025 10.957-93.135 5.129-5.245 13.988 4.429 9.326 9.208-41.147 43.246-1.633 100.945 24.595 140.694 29.84 45.343 74.602 98.381 70.522 156.198-3.030 43.246-40.331 70.639-77.283 88.24 54.669-3.147 106.657 24.479 145.59 65.16 57.584 60.147 91.853 143.025 107.24 224.039 14.338 76.001 13.055 162.958-28.442 230.799zM512.903 262.268c-18.65 5.012-36.252 13.405-51.988 24.595 6.178 11.54 14.338 22.381 21.215 33.803 14.454-16.902 25.062-36.951 30.89-58.398zM748.715 708.711c1.282-86.491-21.564-171.584-65.976-245.836-36.601-61.080-96.632-120.645-173.215-116.333-75.534 4.313-131.252 68.774-166.921 129.388-42.43 71.688-65.16 153.166-65.86 236.51 0 60.73 20.865 122.277 65.976 162.141-2.681-3.030-5.479-6.178-8.043-9.326-6.062-7.46 1.049-19.35 8.161-10.724 33.803 41.964 80.663 71.454 133 83.927 51.405 10.957 105.025 3.381 151.418-21.215 41.847-20.632 75.884-54.086 97.332-95.467 15.853-35.551 24.129-74.019 24.129-112.952v0zM591.001 850.804c-1.282 0.233-2.447-2.099-0.933-2.447 97.798-23.546 132.767-145.939 92.086-230.216 2.215 36.252-4.546 72.387-19.7 105.374-17.718 43.479-40.798 84.626-68.774 122.51-4.196 5.711-11.773-3.497-8.743-8.626 23.779-36.719 45.343-74.835 64.693-114 17.718-40.331 32.055-88.706 16.202-131.835-2.447-6.528 4.897-8.509 8.509-3.73 65.51 87.191 34.386 242.572-83.461 263.087zM591.001 850.804s0 0 0 0c0 0 0 0 0 0v0z" />
<glyph unicode="&#xe92f;" glyph-name="draw-heart" d="M1006.992 713.451c-53.418 129.328-203.724 150.090-322.887 120.028v0c-74.396-19.031-187.72-64.664-223.837-142.304-0.649 1.73-1.081 3.46-1.73 4.974-9.948 26.817-24.871 51.688-43.686 73.531-36.549 43.47-85.642 74.179-140.574 88.237-117.217 28.764-238.327-53.635-268.388-167.391-30.927-116.784 66.826-237.030 133.221-322.455 33.738-43.47 68.125-86.075 103.809-126.733 1.297-5.19 3.244-10.164 5.623-14.923 2.379-5.407 8.218-8.218 13.841-6.704 57.095-64.015 120.894-121.975 189.883-172.798 0.865-0.649 1.947-1.081 2.811-1.514 3.46-10.381 14.706-17.301 30.927-10.164 150.738 66.61 283.094 180.799 392.093 303.207 88.67 99.699 186.422 234.867 128.463 375.008zM814.514 345.58v0c-91.913-113.108-207.833-204.589-339.324-267.523-70.719 52.337-135.384 112.243-193.343 178.637 0.649 24.438-5.407 50.822-6.704 74.179-1.514 28.764 5.84 68.773-6.056 95.374-0.649 1.514-2.811 0.865-3.677 0-19.68-23.79-19.68-59.258-22.275-88.453-0.865-9.516-1.947-20.545-2.811-32.008-5.623 6.92-11.246 13.625-16.653 20.545 6.056 3.893 10.164 10.381 11.246 17.518 0.433 24.222-5.19 49.309-6.92 73.531-1.081 14.706-1.73 29.628-1.73 44.551-1.947 9.3-2.595 19.031-2.379 28.547 0.433 0.649 0 1.514-0.433 1.947-0.649 0.433-1.297 0.216-1.73 0-17.95-10.813-17.518-40.875-19.464-58.608-3.46-24.006-5.407-48.228-5.84-72.449-11.246 14.274-22.491 28.547-33.738 43.037 9.3 2.379 16.869 9.083 20.113 18.167 2.595 25.304 1.297 50.822-3.46 75.91-1.947 26.817-1.947 53.851 0 80.668 0.433 6.704-9.948 3.677-11.462-0.433-10.164-27.466-16.653-56.013-19.248-85.209-3.677-21.411-4.974-43.254-4.109-65.096-45.416 60.771-85.209 125.435-96.023 201.562-16.437 113.757 94.076 202.21 202.21 177.556 46.93-12.327 88.886-38.495 120.244-75.261 16.22-18.383 30.277-38.928 41.524-60.771 5.407-10.381 10.164-20.978 14.923-31.575 6.488-14.274 16.004-12.976 25.087-25.304 0-0.216 0.433-0.433 0.865-0.433 3.677-1.297 7.57 0.433 9.083 3.893 39.794 89.102 138.627 149.225 232.92 161.768 99.699 13.408 217.997-25.087 239.841-137.33 19.897-102.294-58.825-222.539-120.677-296.935zM785.102 736.159v0c-36.765 1.947-86.507-4.974-96.672-47.795-3.677-14.274 4.974-28.764 19.248-32.44 2.811-0.649 5.84-0.865 8.651-0.649 33.954 1.514 88.886 21.627 105.971-20.329 22.491-55.365-27.898-118.298-59.258-158.957-6.488-8.434 4.109-16.653 11.462-9.516 25.304 26.168 45.849 56.229 60.771 89.319 17.734 36.117 38.279 75.693 28.547 117.217-8.002 36.765-40.875 63.15-78.505 62.934z" />
<glyph unicode="&#xe930;" glyph-name="draw-stroller" d="M745.676 168.73v0s0.629 0.629 0.629 0.629c-5.451 3.355-9.539 8.596-14.676 12.474-0.629 0.419-1.153 0.944-1.677 1.572-15.725 12.894-35.433 19.918-55.77 19.918-41.931-1.363-69.921-39.94-70.236-79.251-0.314-1.363-0.419-2.83-0.314-4.193-0.314-8.386 0-16.773 0.839-25.055 2.202-8.491 5.451-16.563 9.749-24.215 2.935-5.661 6.814-10.902 11.321-15.41 4.927-7.338 11.216-13.628 18.45-18.764 33.231-23.167 86.589-11.846 114.474 14.571 27.36 25.893 19.813 67.195 2.935 96.443-4.403 7.653-9.749 14.886-15.725 21.49zM1014.459 700.216s-0.21 0-0.21 0v0c-38.053 0.524-76.002 3.355-114.054 3.984-1.992 1.049-3.879 2.097-5.87 3.249-12.16 7.128-31.764-11.951-18.764-21.28-4.927-29.457-13.523-58.39-20.546-87.323-3.46-14.467-6.395-29.143-8.491-43.819-0.944-4.612-1.363-9.33-1.258-14.048-0.629-0.21-1.258-0.419-1.887-0.734-26.627-13.523-57.028-14.467-86.275-13.209-34.489 2.307-68.873 6.604-102.943 12.684-31.764 5.661-64.051 8.281-96.338 7.758-43.609-1.677-86.589-9.435-130.304-6.709-0.21 0-0.524 0-0.734 0 4.193 0.314-2.097 9.749-0.524 18.031-0.21 5.137-0.524 9.958-0.839 14.257-1.363 20.127-5.137 39.94-5.346 60.067-0.629 45.601 2.621 91.201 1.887 136.802-0.21 23.482-1.992 47.068-5.346 70.341-1.572 15.095-6.395 29.667-14.152 42.77-3.984 26.522-15.725 59.753-42.666 58.495-15.725-0.734-38.577-18.136-37.424-35.433-35.538 3.984-71.494-0.105-105.249-12.055-17.297-5.661-34.070-12.79-50.109-21.28-0.314 0-0.629 0-0.734-0.419-36.585-19.079-68.873-45.496-94.766-77.679-35.747-45.286-53.358-102.419-63.002-158.398-2.83-11.427-4.927-22.957-6.185-34.594-0.314-11.846-0.839-23.587-1.468-35.538-1.468-28.618-1.049-57.342 1.153-85.855-1.258-1.572-1.468-3.879 0.419-4.612 0.839-10.169 1.887-20.337 3.145-30.506 5.346-54.826 21.071-108.184 46.23-157.14 4.718-8.596 9.854-16.983 15.41-25.055 3.355-4.927 37.529-44.972 37.215-45.496-5.032-8.386-9.12-17.402-12.16-26.732-0.419-1.363-0.839-2.726-1.258-4.193-11.007-19.918-17.297-42.036-18.45-64.785-4.823-101.37 92.984-179.993 190.476-165.631 33.964 5.137 64.365 24.006 83.969 52.205 8.386 6.709 15.725 14.467 22.119 23.062 10.064 13.837 16.983 29.667 20.337 46.44 22.853-3.46 45.915-5.556 69.083-6.395 25.159-0.839 50.423 0.21 75.372 3.249 5.032-16.144 12.474-31.344 22.119-45.182 33.336-49.375 90.259-77.574 149.801-74.114 51.681 5.346 97.91 34.384 125.167 78.518 40.884 64.26 26.103 151.374-24.006 204.313 55.56 77.050 91.411 175.17 66.462 265.952-2.83 9.958-6.5 19.708-11.007 29.038-1.258 2.83-3.774 4.718-6.814 5.137v0c6.709 21.699 12.37 44.343 18.764 66.253 6.709 23.167 14.362 46.335 20.022 69.921 32.183-15.41 66.357-26.417 101.475-32.707 7.128-1.363 14.362 1.992 17.925 8.386 6.709 12.579 10.274 26.522 10.169 40.779 0 5.032-4.193 9.12-9.225 9.12zM324.052 896.248c0.734-0.734 1.677-1.258 2.726-1.468h0.629c2.83-2.935 6.29-5.032 10.064-6.185-10.378-4.403-18.869-12.265-24.32-22.119-12.894-23.062-0.839-43.085 18.555-53.463-17.192-8.911-29.038-25.578-31.659-44.867-1.049-9.016 0.105-18.241 3.565-26.627 2.097-6.5 5.556-12.579 10.064-17.821 4.927-4.088 10.169-7.758 15.829-10.902-1.049-1.049-14.467-13.313-13.418-14.048-10.588 8.911-21.28 17.716-31.868 26.522-25.578 20.546-49.48 43.294-71.179 67.825-9.854 11.427-18.66 23.692-26.313 36.796-3.984 7.128-7.443 14.467-10.378 22.119-1.363 3.355-2.307 7.128-3.565 10.797 46.23 25.264 98.749 36.796 151.374 33.441zM94.894 803.368v0c20.546 22.224 44.552 41.093 71.074 55.874 2.097-8.701 5.137-17.087 9.12-25.055 5.765-12.999 12.894-25.474 21.176-37.005 19.288-25.683 41.617-49.060 66.357-69.607 15.305-13.628 31.029-26.732 46.649-40.15-4.088-8.491-6.395-17.611-6.919-27.046-1.153-12.894 4.193-25.474 14.152-33.545-21.49 8.911-43.609 16.563-65.623 23.901-35.118 11.741-70.55 22.748-105.144 36.166-18.241 7.023-35.852 15.095-53.358 23.901-13.313 6.709-25.369 14.886-37.738 22.748 1.363 0.314-0.944 2.516-3.355 3.040 11.007 24.425 25.788 46.963 43.609 66.881zM46.567 725.794c24.215-18.345 50.947-33.126 79.356-43.819 35.118-15.095 71.599-26.732 107.765-38.996 31.344-10.169 62.164-21.909 92.355-35.118-6.081-11.532-8.177-24.74-5.975-37.634 0.419-2.202 0.839-4.298 1.572-6.395-98.749 25.264-202.845 29.038-302.539 50.319 3.984 38.263 13.209 75.897 27.571 111.644zM15.643 513.619v0c-1.258 31.659-0.314 63.317 2.83 94.871 101.58-28.094 208.82-30.715 310.19-58.39 5.87-7.653 14.362-12.79 23.796-14.676 0.21-0.629 0.419-1.363 0.734-1.992-3.46-5.242-5.556-11.321-6.185-17.506-47.068-3.984-94.137-9.225-140.996-14.676-62.793-7.338-125.691-12.265-188.588-18.241-0.839 10.274-1.363 20.441-1.782 30.715zM18.054 474.728v0c13.313-0.419 26.627-0.524 39.94-0.21-1.049-0.839-1.782-2.097-1.782-3.46 0-9.644 1.049-19.603-6.919-26.732-7.653-6.919-19.288-3.774-27.885 0-1.363 10.169-2.516 20.337-3.46 30.506zM359.694 102.059v0s-0.21 0-0.21 0c0-4.088-0.419-8.177-1.153-12.265 0.419-1.468 0.314-2.935-0.21-4.298l-0.734-1.677s0-0.105-0.105-0.21h0.21c-3.669-22.748-12.37-44.552-25.369-63.527-31.764-21.595-70.865-29.667-108.603-22.434-35.327 5.765-67.405 23.901-90.573 51.052-26.627 34.803-36.796 79.356-27.78 122.232 0 0.524 0.21 1.049 0.314 1.572 3.565 7.653 7.862 14.99 12.894 21.909 5.346 8.911 12.265 16.667 20.546 22.957 7.548 6.919 15.829 13.209 24.53 18.66 25.893 15.829 56.503 21.699 86.38 16.667 1.677-2.202 4.403-3.249 7.023-2.935 2.516 0 4.927 0 7.338-0.105 17.506-4.612 34.070-12.474 48.64-23.272 11.321-8.386 21.176-18.555 29.248-30.087 14.152-29.352 20.232-61.954 17.716-94.347zM781.738 23.017v0c-32.392-40.15-85.122-49.899-132.085-32.602-40.464 15.41-71.913 47.907-86.065 88.79-3.774 5.556-5.556 12.265-5.137 18.869-7.233 50.319 12.055 100.741 51.157 133.343 0.524 0.419 1.049 0.734 1.468 1.153 30.296 12.474 62.898 21.699 95.814 16.039 21.804-4.088 41.827-14.781 57.342-30.715 3.669-1.468 6.709-4.193 8.596-7.548 1.887-2.726 3.46-5.556 4.927-8.491l0.21 0.21c2.411-3.145 4.612-6.395 6.814-9.644 32.078-49.794 34.803-122.232-3.249-169.509zM857.005 467.495v0c10.169-74.22-20.861-151.794-65.309-215.215-17.611 14.362-38.368 24.53-60.486 29.352-46.44 9.854-94.871-1.992-131.561-32.183l-2.307-1.153c-2.726-1.258-5.032-3.46-6.395-6.185-13.942-11.846-26.417-25.264-37.11-40.15-22.957-31.764-31.659-71.704-24.215-110.176-29.562-3.145-59.439-3.565-89.105-1.468-16.144 1.049-32.392 2.935-48.536 5.451 1.049 15.2 0.21 30.401-2.621 45.391-3.879 22.224-12.16 43.399-24.425 62.374-17.297 35.747-47.382 63.002-89.839 66.776-22.329 6.395-45.705 8.386-68.768 5.975-34.908-1.782-67.615-17.506-90.887-43.505-8.281 8.701-16.039 17.716-23.272 27.255 5.87 15.62 3.774 33.022-5.661 46.859-0.734 1.258-2.516 0.944-3.669 0.629-4.823-1.782-10.693-3.669-12.474-9.016-1.258-3.984 3.565-8.911 4.298-12.474 0.105-0.524 0.839 0 0.944 0.314 0.629 7.443-3.355 12.055 5.661 14.886 3.984-9.33 4.823-19.603 2.307-29.457-14.048 19.918-25.788 41.512-34.803 64.156-12.894 33.65-21.804 68.663-26.627 104.305 8.806-5.451 19.813-5.765 28.933-0.839 10.169 7.862 15.515 20.546 13.837 33.336 0 0.629-0.314 1.258-0.629 1.782 43.924 1.258 88.057 6.081 131.351 10.378 51.472 5.032 102.733 11.112 154.31 15.515 0.944-1.887 1.992-3.669 3.249-5.346 15.725-21.28 44.343-7.338 59.019 6.814 0.524 0.524 0.944 1.049 1.468 1.572 2.411-0.419 4.823-0.419 7.233-0.21-1.677-16.773 4.193-33.441 16.144-45.496 7.023-7.128 16.039-11.951 25.893-13.837 9.33-1.782 18.974 0.21 26.732 5.556 2.935 1.992 5.451 4.507 7.443 7.338 16.248-18.345 40.15-27.885 64.575-25.997 15.2 0.419 29.667 6.5 40.673 16.878 13.942-12.474 31.449-20.337 50.109-22.329 1.258-0.314 2.516-0.419 3.774-0.419 1.153 0 2.307-0.21 3.355-0.21 18.136-1.572 35.747 6.081 47.068 20.337 23.482-21.699 72.646-21.699 92.459 4.403 12.16-5.556 26.313-5.032 38.053 1.572 7.758 3.879 14.467 9.435 19.708 16.353zM293.546 130.153c1.782 34.384-15.62 69.607-53.987 71.179-21.071 8.281-44.343 6.604-58.075-15.515-13.313-13.418-20.546-31.764-19.918-50.633-0.944-5.975-0.734-11.951 0.524-17.821 0.629-3.249 1.572-6.5 2.726-9.539 2.202-14.676 10.797-27.675 23.482-35.327 4.927-2.83 10.378-4.612 16.039-5.346 7.338-2.935 15.2-4.088 22.957-3.46 2.621 0.21 5.242 0.524 7.862 0.944 14.362-0.419 28.304 5.242 38.263 15.62 0.944 0.524 1.782 1.049 2.621 1.677 3.145 2.516 5.451 5.87 6.709 9.749 2.726 3.355 5.137 7.023 7.023 10.902l1.258-0.419c-0.629 6.604 3.145 12.474 2.516 20.441 0 1.153 0 2.307 0.524 3.355-0.105 1.468-0.314 2.935-0.629 4.298v0zM103.49 402.081v0c-8.911 0-17.087-4.823-21.385-12.579-4.507-10.169-2.726-22.119 4.718-30.401 2.935-3.774 9.225-1.782 12.16 1.782 2.516-1.677 5.137-3.040 7.967-4.088 2.307-0.944 4.718 1.049 5.87 2.726 7.023 8.596 9.958 19.708 7.967 30.61-2.516 7.338-9.539 12.16-17.297 11.951zM107.055 365.704v0c-3.669 0.629-6.604 3.355-7.653 6.919 0 3.669-0.419 7.233-1.049 10.797-0.524 1.572-2.202 1.363-3.355 0.419 0 0.734 0.21 1.363 0.419 1.992l0.21 0.419v0.314s0.419 0.314 0.524 0.419l0.419 0.314s2.411 0.944 1.782 0.944c0.314 0 0.629 0.21 0.944 0.21h0.314s0.419 0 0.419 0c0.629 0 1.153 0 1.677 0h0.419c0.524-0.21 1.153-0.419 1.677-0.629h0.21s0.314-0.21 0.314-0.21c0.839-0.419 1.677-1.049 2.411-1.677 0-0.105 0.734-0.734 0.839-0.944s0.944-1.468 0.944-1.468c1.887-5.975 1.363-12.579-1.677-18.031zM351.202 454.286c-3.46 3.355-8.177 5.137-12.999 4.718 0.524 0.105 1.049 0.21 1.468 0.314s0.944 1.049 0.105 1.049c-13.313 2.202-25.893-6.919-28.094-20.232-0.314-1.887-0.419-3.774-0.21-5.765 1.677-19.918 24.006-25.997 40.569-24.111 3.249 0.629 5.765 2.935 6.709 6.081 1.782 12.579 2.516 28.409-7.653 37.843v0zM322.060 435.312v0c-0.314 0.629-0.524 1.258-0.629 1.887 1.992-0.105 3.984 0.524 5.661 1.677 5.032 3.774 9.225 7.128 13.628 1.258 3.355-5.346 5.032-11.636 4.612-18.031-9.749-1.049-19.079 4.298-23.272 13.104zM450.476 265.592c4.298 13.418 0 28.094-10.797 37.11v0c-5.765 4.823-13.732 5.975-20.651 2.935-9.539-5.032-16.563-13.942-19.394-24.425-2.83-7.233 5.242-9.225 11.007-6.814 0-2.935 0.629-5.765 1.887-8.386 6.709-13.313 31.449-14.676 37.948-0.419zM438.316 267.165v0s-0.314 0-0.419 0c-5.556-1.992-11.741-0.629-15.934 3.355-4.927 6.709-3.879 16.039 2.411 21.595h0.734c-1.153 0 1.363-0.629 1.677-0.734-0.524 0.21 1.468-0.944 1.782-1.258 6.081-4.823 9.854-12.16 10.169-19.918 0-1.049 0-1.992-0.419-2.935zM586.545 374.72v0c-2.621-2.516-3.145-6.5-1.258-9.539 0.21-0.21 0.314-0.314 0.524-0.524-1.363-4.193-1.677-8.596-0.944-12.894 2.83-15.2 26.313-19.499 36.376-9.644 7.967 9.12 9.958 22.119 5.032 33.126-8.281 17.611-28.829 9.749-39.731-0.524zM611.494 349.981v0c-1.153 0-3.774-0.419-4.612-0.419-4.507 0-8.701 2.202-11.427 5.87-1.677 2.202-2.516 5.032-2.307 7.758 1.363 0.419 2.621 0.944 3.774 1.677 6.081 3.774 10.274 7.338 14.152 1.258 2.411-5.032 2.621-11.007 0.524-16.144zM792.326 391.388v0c-4.403-2.411-10.378-12.37-1.992-14.257 0.944-0.21 1.887-0.314 2.83-0.419-7.443-3.669-8.386-15.62-5.661-24.53 1.049-3.565 5.032-3.46 7.862-2.411 13.732 4.403 24.95 14.467 30.715 27.675 5.765 18.66-23.482 19.394-33.65 13.942zM808.993 375.873c0.419 1.363-1.782-2.726-1.363-2.097-1.468-1.887-3.145-3.774-4.823-5.451-1.782-1.782-3.774-3.355-5.87-4.718-1.992 4.927-1.782 10.169 5.346 11.846 0.734 0.21 1.572 1.363 0.734 1.782 1.677 0.105 3.355 0 5.032-0.21 0.419 0 0.839-0.21 1.258-0.314-0.105-0.314-0.21-0.524-0.314-0.839zM465.362 187.39v0c-10.588 0.944-20.022-10.693-21.804-19.918-0.734-3.879 0.944-5.975 3.355-6.604 3.249-13.837 23.692-7.233 33.441-5.975 3.565 0.524 8.596 5.556 6.814 9.435-4.403 9.539-9.854 22.014-21.699 23.062zM468.297 163.908v0c-1.992-0.524-3.984-0.734-6.081-0.629 0.105 0.314 0.21 0.629 0.314 0.944 0.419 2.516-0.944 3.46-2.621 3.355 0.734 0.944 1.572 1.992 2.307 2.935l0.524 0.524c2.726-1.782 4.927-4.088 6.604-6.919l-1.049-0.314zM249.727 382.059v0c-3.984-1.258-7.338-3.879-9.33-7.548-0.524-0.839-1.049-1.677-1.572-2.516l-0.21-0.314h-0.105c-2.411-2.411-2.621-6.185-0.419-8.596 0.21-0.21 0.314-0.314 0.524-0.524 0.314-0.21 0.734-0.419 1.049-0.524 2.516-3.984 12.16-4.403 15.62-4.823 3.145-0.314 7.443 3.145 7.128 6.5-0.734 7.023-2.097 20.757-12.579 18.345z" />
<glyph unicode="&#xe931;" glyph-name="draw-pacifier" d="M242.975 264.815c-58.321-26.534-83.016-148.956-4.466-166.558v0c22.856-4.991 46.762 22.33 19.178 33.364-17.076 37.567-4.991 75.398 11.033 113.49 6.567 15.5-12.347 25.745-25.745 19.703zM763.14 523.058c-4.729-2.102-4.466-7.881 1.051-8.406 87.219-8.669 137.396 65.678 161.566 140.023 27.584 84.592 18.915 172.075-47.288 236.175-68.305 62.262-164.455 84.592-253.514 58.321-46.5-13.924-86.956-42.559-115.592-81.702-27.584-43.873-40.72-95.364-37.304-147.117-39.144 22.856-84.067 34.415-129.253 33.364-64.364-5.254-112.439-61.474-107.185-125.838 0-2.89 0.525-5.517 1.051-8.406 12.61-74.872 52.542-142.389 112.176-189.413v0s1.839-1.313 2.89-2.102c-39.407-26.008-81.177-47.813-125.050-65.152-7.356-3.152-13.924-6.83-20.492-10.508-68.042-35.991-113.49-102.982-121.109-179.168-7.093-56.482 9.983-112.964 47.025-156.049 73.559-81.702 192.566-104.295 291.081-55.694 52.016 28.898 89.058 78.813 101.406 137.134 5.254 21.017 8.406 42.297 9.457 63.839-0.525 49.127 3.415 98.253 11.821 146.592 0.263 0 0.788 0 1.051-0.263 87.744-19.178 182.057-91.423 276.107-61.736 46.237 14.449 57.27 55.169 49.652 99.304-14.712 85.117-88.007 147.38-152.371 197.295-58.847 45.712-120.058 89.058-180.218 133.193-7.093 5.254-14.449 10.508-22.068 15.5 2.102 2.364 3.415 5.779 3.678 8.932 3.415 84.067 25.483 174.964 121.635 190.464 60.948 4.729 121.372-15.763 167.083-56.482 46.5-36.779 70.144-95.626 61.736-154.473-9.72-66.729-49.915-125.050-109.024-157.363zM577.141 467.889c2.364-19.703 2.102-39.407-0.525-59.109-49.127-37.304-79.338-94.313-82.753-156.049-2.627-21.542-3.415-43.347-4.991-64.627 0.263-49.915-12.084-99.041-35.991-142.651-51.754-83.279-161.040-86.694-238.54-39.932-100.355 60.685-105.609 205.964-26.796 287.404 16.288 15.5 35.465 28.11 56.482 36.779 21.542 9.72 43.873 17.865 63.575 26.534 35.991 16.551 69.618 38.092 99.304 64.364 33.889 28.372 63.312 70.932 109.287 78.813 24.432 0.788 47.55-11.033 60.685-31.525z" />
<glyph unicode="&#xe932;" glyph-name="draw-bottle" d="M714.28 777.712c-1.601 4.064-3.695 8.005-6.158 11.699v0c-18.227 25.74-54.558 32.020-83.746 32.759-13.67 0.369-27.341-0.862-40.764-3.695-10.837 2.832-19.213 11.453-21.552 22.414-3.571 15.149 9.852 35.961 14.779 53.819 0.246 8.251-0.616 16.503-2.709 24.508v0c-2.34 2.832-3.571 6.281-3.571 9.852-8.744 17.365-25.986 28.818-45.322 30.296-24.877 3.571-49.386-8.128-62.316-29.557-11.453-15.025-7.020-46.799 4.31-61.824 3.941-12.808 7.143-25.863 9.483-39.040-1.232-2.586-2.709-5.049-4.433-7.389-13.423-18.104-39.656-19.336-59.977-16.257-17.735 3.941-35.838 5.419-53.942 4.68-6.034-0.616-11.946-1.478-17.858-2.463-19.336-6.404-35.592-19.705-45.691-37.316-9.975-20.198 0.246-40.641 14.287-55.666-0.616-2.34-0.493-4.68 0.246-6.896-57.513-45.075-35.222-116.012 4.433-164.659 0.493-0.616 1.108-1.108 1.724-1.478-6.773-24.508-11.576-49.386-14.162-74.632-6.527-42.734-15.149-84.977-25.247-127.096-18.474-76.48-39.656-153.451-35.592-232.886 2.709-52.834 23.892-105.544 67.242-137.688 61.208-45.691 146.062-30.666 216.877-31.404 5.911 0.123 11.453 2.709 15.395 7.020 19.213-11.576 52.464-7.512 70.691-5.049 33.621 3.448 66.75 10.098 99.016 19.951 63.794 21.676 79.189 83.499 73.032 144.461-3.571 34.976-11.822 69.582-18.474 104.067-8.621 44.213-16.626 88.425-25.124 132.639-8.251 43.228-16.626 86.455-28.941 128.821-7.020 23.892-14.902 47.415-22.538 71.060 51.479 38.301 78.943 111.579 28.449 163.427-3.941 4.064-8.374 7.635-13.054 10.714 0.862 1.355 1.601 2.832 2.463 4.187 1.724 1.724 3.202 3.695 4.557 5.665 2.094 3.202 3.818 6.527 5.172 10.098 2.34 4.064 4.68 8.128 6.65 12.192 1.232 10.837-1.478 21.799-7.635 30.789zM653.565 560.712c-19.951 1.601-39.902-0.616-59.114-6.404-2.34-0.616-4.064-4.68-0.616-4.926 22.414-1.601 43.967-0.246 64.903-8.867 2.094-8.005 4.31-15.887 6.404-23.892-19.828 1.847-39.902 0.246-59.238-4.803-3.202-0.616-8.128-6.896-3.571-9.236 6.773-3.571 15.641-1.232 23.153-2.586 14.162-2.463 33.744 1.724 44.459-9.975 0.862-0.985 1.97-1.724 3.202-2.217 10.098-36.823 19.951-73.77 26.725-111.702 13.793-78.204 23.277-157.023 37.193-235.226 7.512-41.995 26.232-119.584-21.676-145.077-26.232-14.039-59.361-16.626-88.179-21.676-16.503-3.325-33.129-5.788-49.878-7.389-9.852-0.616-20.075 0-30.050-0.739-1.355 4.68-5.542 8.005-13.423 7.882-67.242-0.985-141.505-15.272-200.866 25.124-43.474 29.434-50.863 85.1-52.218 133.501-1.97 72.293 16.996 144.584 30.912 215.030 7.512 38.178 14.287 76.357 19.089 115.027 4.187 33.252 13.423 69.336 10.96 103.204 41.995 31.281 106.283 34.483 155.421 33.498 48.647-0.985 108.007-0.739 152.835-24.508 1.108-4.68 2.34-9.359 3.448-14.162zM502.454 497.164c-10.222 0.369-21.060 0.862-31.897 0.862-21.799 2.217-43.844 1.232-65.272-2.832-3.695-0.616-31.774-7.143-31.897-16.134-1.724-1.355-2.832-3.202-3.448-5.295-3.202-12.561-6.034-25.247-8.744-37.931-4.31-14.039-7.635-28.326-9.975-42.734-3.202-17.365-5.172-35.099-6.773-52.711-3.448-22.784-6.65-45.691-10.098-68.597-7.389-48.893-17.612-100.741-8.005-149.88 7.020-45.445 39.532-82.884 83.622-96.061 40.271-14.039 85.223-14.039 127.465-12.685 42.859 0 85.347 6.527 126.111 19.705 43.721 16.011 55.913 55.913 52.341 99.14-4.433 55.543-20.814 111.332-30.050 166.26-5.788 34.36-11.207 68.967-15.149 103.574-0.616 19.828-6.65 39.040-17.365 55.789-13.054 17.365-37.193 23.277-56.898 28.203v0c-30.789 7.143-62.193 10.96-93.844 11.453z" />
</font>
</defs>
</svg>
